Narcos Season 3 Complete 1080p NF WEB-DL DD5 1 x265-HEVC-FMDAB

Seeders: 3
Leechers: 9
Completed: 603

Category: TV    Size: 10.2 GB    Age: 1 week    Visits: 127

TorID: 18346911    Posted by: FMDAB

Info Hash: 64A79C3D10ED3E3A957D0E8773AE19FAD3CE87F6

direct download Narcos Season 3 Complete 1080p NF WEB-DL DD5 1 x265-HEVC-FMDAB bookmark kat.com.de

Torrent Info

Download Narcos Season 3 Complete 1080p NF WEB-DL DD5 1 x265-HEVC-FMDAB torrent kickass download torrent watch online torrent movie download download torrents fast and free torrent sites for movies kat movie download free TORRENT Kickass Download KAT Kickass Download Torrent Quantico - Season 3 - Yasmine Al … spoilertv.com/2017/06/quantico-season-3-yasmine-al-massri.html We bring you a comprehensive and up to date spoiler service on all the major US TV shows and Movies. You can find specific show content by clicking the Outlander - Season 2 (DVD/GWP) … target.com › movies, music & books › TV shows Find product information, ratings and reviews for Outlander - Season 2 (DVD/GWP) (Target Exclusive) online on Target.com. Game of Thrones - Season 8 (The Final … spoilertv.com/2017/05/game-of-thrones-season-8-final-season.html Game of Thrones - Season 8 (The Final Season) - Episode Order, May Not Air Until 2019 + May Consist of Feature Length Episodes Big Brother recap: Season 19, Episode … ew.com/recap/big-brother-season-19-episode-24 17.08.2017  · The timing for a double eviction should have been unequivocally disastrous for this Big Brother house on this season, during this summer, in Lista Alfabetica Completa SerieTv - … cb01.uno/serietv/lista-alfabetica-completa-serietv Lista Alfabetica Completa SerieTv di Tutti i Nostri Video in Streaming e Download su cb01.uno ex CineBlog01 (L'originale) Tour Confirms ‘Good But Not Great’ … krvn.com/agricultural/tour-confirms-good-but-not-great-crops The Midwest Crop Tour gave a “good but not great” assessment on how corn and soybeans look this growing season. Corn came in with an overall number of Teeth (2007) - Rotten Tomatoes rottentomatoes.com/m/teeth High school student Dawn works hard at suppressing her budding sexuality by being the local chastity group's most active participant. Her task is made even Chadron man wins NGPC bighorn … kneb.com/regional-news/chadron-man-wins-ngpc-bighorn-sheep-permit The Nebraska Game and Parks Commission approved a bighorn sheep season for 2018. It authorized one auction and one lottery permit for the season at its USOL.com Internet Services usol.com Maria became a Category 3 storm Monday as it continued to churn toward the Leeward Islands in the eastern Caribbean, a path forecasters said was likely to Ethel L. Fiscus Plock, 99, Bridgeport | … kneb.com/obituaries/ethel-l-fiscus-plock-99-bridgeport class="obituaries-template-default single single-obituaries postid-241426 group-blog masthead-fixed full-width singular wpb-js-composer js-comp-ver-5.2.1 download movie torrents free online best torrent downloader isohunt vuze kat download free torrent bittorrent magnet link torrent hash kickass mirror kickass torent.com free download kickass release katcr katproxy kickass kickass cast kickassunblock eztv proxy torrentfreak torrent movie download torrents fast and free torrent sites for movies kat movie download free download movie torrents free online best torrent downloader

Torrent Description



NFO-summary
Name............: Narcos.S03E01.The.Kingpin.Strategy.1080p.NF.WEB-DL.DD5.1.x265-FMDAB.mkv

File size.......: 1 GiB
Duration........: 54mn 35s 936ms
Overal bit rate.: 2 686 Kbps

Video
Resolution......: 1920x1080
Codec...........: V_MPEGH/ISO/HEVC
Aspect Ratio....: 16:9
Frame rate mode : Constant
Frame rate......: 23.976
Bit_Depth.......: 10 bits


Audio
Language........: English * 384 Kbps * 6 CH * AC3
Subtitles.......: English
Subtitles.......: English

Code:

General
Unique ID                                : 291700752044454783344381264481575880931 (0xDB738574FBA6F292EED59E2AE58DC8E3)
Complete name                            : Narcos.S03E01.The.Kingpin.Strategy.1080p.NF.WEB-DL.DD5.1.x265-FMDAB.mkv
Format                                   : Matroska
Format version                           : Version 4 / Version 2
File size                                : 1.02 GiB
Duration                                 : 54mn 35s
Overall bit rate                         : 2 686 Kbps
Encoded date                             : UTC 2017-09-07T19:40:58Z
Writing application                      : HandBrake 20170726212318-710b8c8-master 2017072801
Writing library                          : Lavf57.7.2 / Lavf57.7.2

Video
ID                                       : 1
Format                                   : HEVC
Format/Info                              : High Efficiency Video Coding
Format profile                           : Main [email protected]@Main
Codec ID                                 : V_MPEGH/ISO/HEVC
Duration                                 : 54mn 35s
Bit rate                                 : 2 248 Kbps
Width                                    : 1 920 pixels
Height                                   : 1 080 pixels
Display aspect ratio                     : 16:9
Frame rate mode                          : Constant
Frame rate                               : 23.976 (24000/1001) fps
Color space                              : YUV
Chroma subsampling                       : 4:2:0
Bit depth                                : 10 bits
Bits/(Pixel*Frame)                       : 0.045
Stream size                              : 878 MiB (84%)
Writing library                          : x265 2.3+24-a0eee4b41185:[Mac OS X][clang 8.1.0][64 bit][noasm] 10bit
Encoding settings                        : cpuid=0 / frame-threads=3 / wpp / no-pmode / no-pme / no-psnr / no-ssim / log-level=2 / input-csp=1 / input-res=1920x1080 / interlace=0 / total-frames=0 / level-idc=0 / high-tier=1 / uhd-bd=0 / ref=3 / no-allow-non-conformance / no-repeat-headers / annexb / no-aud / no-hrd / info / hash=0 / no-temporal-layers / open-gop / min-keyint=24 / keyint=240 / bframes=4 / b-adapt=0 / b-pyramid / bframe-bias=0 / rc-lookahead=15 / lookahead-slices=6 / scenecut=40 / no-intra-refresh / ctu=64 / min-cu-size=8 / no-rect / no-amp / max-tu-size=32 / tu-inter-depth=1 / tu-intra-depth=1 / limit-tu=0 / rdoq-level=0 / dynamic-rd=0.00 / signhide / no-tskip / nr-intra=0 / nr-inter=0 / no-constrained-intra / strong-intra-smoothing / max-merge=2 / limit-refs=3 / no-limit-modes / me=1 / subme=2 / merange=57 / temporal-mvp / weightp / no-weightb / no-analyze-src-pics / deblock=0:0 / sao / no-sao-non-deblock / rd=2 / no-early-skip / rskip / fast-intra / no-tskip-fast / no-cu-lossless / no-b-intra / rdpenalty=0 / psy-rd=2.00 / psy-rdoq=0.00 / no-rd-refine / analysis-mode=0 / no-lossless / cbqpoffs=0 / crqpoffs=0 / rc=crf / crf=20.0 / qcomp=0.60 / qpstep=4 / stats-write=0 / stats-read=0 / ipratio=1.40 / pbratio=1.30 / aq-mode=1 / aq-strength=1.00 / cutree / zone-count=0 / no-strict-cbr / qg-size=32 / no-rc-grain / qpmax=69 / qpmin=0 / sar=1 / overscan=0 / videoformat=5 / range=0 / colorprim=1 / transfer=1 / colormatrix=1 / chromaloc=0 / display-window=0 / max-cll=0,0 / min-luma=0 / max-luma=1023 / log2-max-poc-lsb=8 / vui-timing-info / vui-hrd-info / slices=1 / opt-qp-pps / opt-ref-list-length-pps / no-multi-pass-opt-rps / scenecut-bias=0.05 / no-opt-cu-delta-qp / no-aq-motion / no-hdr / no-hdr-opt / refine-level=5
Default                                  : Yes
Forced                                   : No
Color range                              : Limited
Color primaries                          : BT.709
Transfer characteristics                 : BT.709
Matrix coefficients                      : BT.709

Audio
ID                                       : 2
Format                                   : AC-3
Format/Info                              : Audio Coding 3
Mode extension                           : CM (complete main)
Format settings, Endianness              : Big
Codec ID                                 : A_AC3
Duration                                 : 54mn 35s
Bit rate mode                            : Constant
Bit rate                                 : 384 Kbps
Channel(s)                               : 6 channels
Channel positions                        : Front: L C R, Side: L R, LFE
Sampling rate                            : 48.0 KHz
Frame rate                               : 31.250 fps (1536 spf)
Compression mode                         : Lossy
Stream size                              : 150 MiB (14%)
Title                                    : Surround
Language                                 : English
Default                                  : Yes
Forced                                   : No

Text #1
ID                                       : 3
Format                                   : ASS
Codec ID                                 : S_TEXT/ASS
Codec ID/Info                            : Advanced Sub Station Alpha
Compression mode                         : Lossless
Language                                 : English
Default                                  : No
Forced                                   : No

Text #2
ID                                       : 4
Format                                   : ASS
Codec ID                                 : S_TEXT/ASS
Codec ID/Info                            : Advanced Sub Station Alpha
Compression mode                         : Lossless
Language                                 : English
Default                                  : No
Forced                                   : No










Torrent Files

Narcos_Season_3_Complete_1080p_NF_WEB-DL_DD5_1_x265-HEVC-FMDAB (Size: 10.2 GB)
  Narcos_Season_3_Complete_1080p_NF_WEB-DL_DD5_1_x265-HEVC-FMDAB 10.2 GB

Kickass Search Engines Terms for » Narcos Season 3 Complete 1080p NF WEB-DL DD5 1 x265-HEVC-FMDAB

incoming search terms
Narcos Season 3 Complete 1080p NF WEB-DL DD5 1 x265-HEVC-FMDAB Download
Narcos Season 3 Complete 1080p NF WEB-DL DD5 1 x265-HEVC-FMDAB Kickass Download
Narcos Season 3 Complete 1080p NF WEB-DL DD5 1 x265-HEVC-FMDAB Full HD
Narcos Season 3 Complete 1080p NF WEB-DL DD5 1 x265-HEVC-FMDAB Free Download
Narcos Season 3 Complete 1080p NF WEB-DL DD5 1 x265-HEVC-FMDAB Kickasstorrents
Narcos Season 3 Complete 1080p NF WEB-DL DD5 1 x265-HEVC-FMDAB Limetorrents
kickass search terms
Narcos Season 3 Complete 1080p NF WEB-DL DD5 1 x265-HEVC-FMDAB Watch Online
Narcos Season 3 Complete 1080p NF WEB-DL DD5 1 x265-HEVC-FMDAB Trailer
Narcos Season 3 Complete 1080p NF WEB-DL DD5 1 x265-HEVC-FMDAB Imdb
Narcos Season 3 Complete 1080p NF WEB-DL DD5 1 x265-HEVC-FMDAB Kat Torrent
Narcos Season 3 Complete 1080p NF WEB-DL DD5 1 x265-HEVC-FMDAB 1337x Download
Narcos Season 3 Complete 1080p NF WEB-DL DD5 1 x265-HEVC-FMDAB Torrentz

Recently Added Torrents in TV

Trackers List

tracker name
udp://tracker.opentrackr.org:1337/announce
udp://tracker.leechers-paradise.org:6969/announce
udp://tracker.pirateparty.gr:6969/announce
udp://tracker.coppersurfer.tk:6969/announce
udp://tracker.mg64.net:2710/announce
udp://tracker.zer0day.to:1337/announce




Kickass Latest & Upcoming


Breaking News Ftc warns influencers about relying on instagram's ad marker Breaking News Ftc warns influencers about relying on instagram's a...

Read More »

BBQ vs CJ Highlights Game 2 Spring Promotions bbq OLIVERS vs CJ Entus BBQ vs CJ Highlights Game 2 Spring Promotions bbq OLIVERS vs CJ Entus

Read More »

Starcraft 2 - Ant Colonies Tutorial How to Herding the Mobs / Sheeps / Pigs Starcraft 2 - Ant Colonies Tutorial How to Herding the Mobs / Sheeps /...

Read More »