Black Widows - S02 E02 x265 HEVC - SWE (ENG SUBS) [BRSHNKV]

Seeders: 7
Leechers: 1
Completed: 94

Category: TV    Size: 262.6 MB    Age: 1 week    Visits: 49

TorID: 18389963    Posted by: Baryshnikov

Info Hash: A004527C57E07901AB2E09CE99203716BEB4E05C

direct download Black Widows - S02 E02 x265 HEVC - SWE (ENG SUBS) [BRSHNKV] bookmark kat.com.de

Torrent Info

Download Black Widows - S02 E02 x265 HEVC - SWE (ENG SUBS) [BRSHNKV] torrent kickass download torrent watch online torrent movie download download torrents fast and free torrent sites for movies kat movie download free TORRENT Kickass Download KAT Kickass Download Torrent » Mehr als 4500 Serien für dich » Serienjunkies serienjunkies.org Wir bieten jede TV-Serie kostenlos als Stream und zum Download an. Bei uns ist alles online, von den Top-Serien bis zum DDR Kinderfernsehen Totally Spies! (2001–2014) Watch … watchcartoonsonline.eu/totally-spies-full-episodes Totally Spies! (2001–2014) full episodes watch cartoons online. Synopsis: Under the direction of the World Organization of Human Protection's director Jerr TV « NRK Filmpolitiet - alt om film, spill … p3.no/filmpolitiet/category/tv Da er den sendt – den aller siste episoden av Girls. Dermed er fem år med himmel og helvete over. TuSerie.Com | Download TV Shows … tuserie.com/page/5 Download TV Shows MEGA x265 and Yify Movies Download Narcos – 2ª Temporada … universeseries.org/narcos-2-temporada-dublado Filmada na Colômbia, ”Narcos” traz para sua primeira temporada, dez episódios, que já estarão diponíveis a partir da estreia. A sinopse oficial OLD TIME RADIO UK - oldtimetv home oldtimetv.net/old-time-radio-uk-comedy-entertainment Hi everyone and welcome to the Old Time Radio UK Section of the website. We hope you enjoy trawling through the 200,000 radio shows we have and more p3.no » Filmpolitiet Podkast p3.no/filmpolitiet-podkast Filmpolitiet er NRKs portal for anmeldelser og saker om film, spill og tv. Vi er ærlige, personlige og subjektive i hva vi skriver, sier og viser frem. I AV3 - 磁力链接 - magnet磁力搜索 av3.cc 磁力链接av3.cc专业的磁力搜索与分享的网站,收录索引了日本热门的磁力链接信息,番号大全与番号列表更新及时 download movie torrents free online best torrent downloader isohunt vuze kat download free torrent bittorrent magnet link torrent hash kickass mirror kickass torent.com free download kickass release katcr katproxy kickass kickass cast kickassunblock eztv proxy torrentfreak torrent movie download torrents fast and free torrent sites for movies kat movie download free download movie torrents free online best torrent downloader

Torrent Description



Three women are gathered at a cabin with their three colleague husbands when they watch the men blow up in the boat just going out fishing. A police man investigates the widows, who will have to try to explain what happened.










Tech:

Format : MPEG-4
Format profile : Base Media / Version 2
Codec ID : mp42
File size : 263 MiB
Duration : 42mn 31s
Overall bit rate mode : Variable
Overall bit rate : 863 Kbps
Movie name : Black Widows S02 E02 x265 HEVC [BRSHNKV]
Encoded date : UTC 2017-08-30 20:50:42
Tagged date : UTC 2017-08-30 20:50:42
Writing application : HandBrake 20160211184813-ffd8cb1-master 2016021301

Video
ID : 1
Format : HEVC
Format/Info : High Efficiency Video Coding
Format profile : Main [email protected]@Main
Codec ID : hev1
Codec ID/Info : High Efficiency Video Coding
Duration : 42mn 31s
Bit rate : 701 Kbps
Width : 1 024 pixels
Height : 576 pixels
Display aspect ratio : 16:9
Frame rate mode : Constant
Frame rate : 25.000 fps
Color space : YUV
Chroma subsampling : 4:2:0
Bit depth : 10 bits
Bits/(Pixel*Frame) : 0.048
Stream size : 213 MiB (81%)
Writing library : x265 1.9:[Mac OS X][clang 7.0.2][64 bit] 10bit
Encoded date : UTC 2017-08-30 20:50:42
Tagged date : UTC 2017-08-30 20:50:42
Color range : Limited
Color primaries : BT.601 PAL
Transfer characteristics : BT.709
Matrix coefficients : BT.601

Audio
ID : 2
Format : AAC
Format/Info : Advanced Audio Codec
Format profile : LC
Codec ID : 40
Duration : 42mn 31s
Bit rate mode : Variable
Bit rate : 156 Kbps
Channel(s) : 2 channels
Channel positions : Front: L R
Sampling rate : 48.0 KHz
Compression mode : Lossy
Stream size : 47.4 MiB (18%)
Title : Stereo / Stereo
Language : Swedish
Encoded date : UTC 2017-08-30 20:50:42
Tagged date : UTC 2017-08-30 20:50:42





Torrent Files

Black_Widows_-_S02_E02_x265_HEVC_-_SWE_(ENG_SUBS)_[BRSHNKV] (Size: 262.6 MB)
  Black_Widows_-_S02_E02_x265_HEVC_-_SWE_(ENG_SUBS)_[BRSHNKV] 262.6 MB

Kickass Search Engines Terms for » Black Widows - S02 E02 x265 HEVC - SWE (ENG SUBS) [BRSHNKV]

incoming search terms
Black Widows - S02 E02 x265 HEVC - SWE (ENG SUBS) [BRSHNKV] Download
Black Widows - S02 E02 x265 HEVC - SWE (ENG SUBS) [BRSHNKV] Kickass Download
Black Widows - S02 E02 x265 HEVC - SWE (ENG SUBS) [BRSHNKV] Full HD
Black Widows - S02 E02 x265 HEVC - SWE (ENG SUBS) [BRSHNKV] Free Download
Black Widows - S02 E02 x265 HEVC - SWE (ENG SUBS) [BRSHNKV] Kickasstorrents
Black Widows - S02 E02 x265 HEVC - SWE (ENG SUBS) [BRSHNKV] Limetorrents
kickass search terms
Black Widows - S02 E02 x265 HEVC - SWE (ENG SUBS) [BRSHNKV] Watch Online
Black Widows - S02 E02 x265 HEVC - SWE (ENG SUBS) [BRSHNKV] Trailer
Black Widows - S02 E02 x265 HEVC - SWE (ENG SUBS) [BRSHNKV] Imdb
Black Widows - S02 E02 x265 HEVC - SWE (ENG SUBS) [BRSHNKV] Kat Torrent
Black Widows - S02 E02 x265 HEVC - SWE (ENG SUBS) [BRSHNKV] 1337x Download
Black Widows - S02 E02 x265 HEVC - SWE (ENG SUBS) [BRSHNKV] Torrentz

Recently Added Torrents in TV

Trackers List

tracker name
udp://tracker.opentrackr.org:1337/announce
udp://tracker.leechers-paradise.org:6969/announce
udp://tracker.pirateparty.gr:6969/announce
udp://tracker.coppersurfer.tk:6969/announce
udp://tracker.mg64.net:2710/announce
udp://tracker.zer0day.to:1337/announce




Kickass Latest & Upcoming


Wwe Raw 9 September 2017 Live Streaming nine/09/17 Classy Wrestling Wrestling Reality Amit R Wwe Raw 9 September 2017 Live Streaming nine/09/17 Classy Wrestling Wr...

Read More »

My Top 5 Prettiest Anime Girls - AMV Anime - TheFatRat - Windfall My Top 5 Prettiest Anime Girls - AMV Anime - TheFatRat - Windfall

Read More »

Today News - 5 things to know: trash crews ask residents for help after harvey Today News - 5 things to know: trash crews ask residents for help afte...

Read More »